Saturday, June 26, 2010

Stones.in.Exile.2010.BONUS.DOCU.DVDRip.XViD-SPRiNTER

Stones.in.Exile.2010.BONUS.DOCU.DVDRip.XViD-SPRiNTER

Stones.in.Exile.2010.BONUS.DOCU.DVDRip.XViD-SPRiNTER


Stones.in.Exile.Extras.2010.DOCU.DVDRip.XViD-SPRiNTER
http://www.imdb.com/title/tt1609157/

Date: 2010.06

Genre: Documentary
Plot: A close friend of MacGyver is murdered. In searching for a reason for
this assassination MacGyver discovers...

Cast:
The Rolling Stones ... Themselves (archive footage)
Mick Jagger ... Himself (also archive footage)
Keith Richards ... Himself (also archive footage)
Charlie Watts ... Himself (also archive footage)
Bill Wyman ... Himself (also archive footage)
Mick Taylor ... Himself (also archive footage)





Release notes

Enjoy!


Greetings


Details



Format : AVI
Format/Info : Audio Video Interleave
File size : 701 MiB
Duration : 1h 21mn
Overall bit rate : 1 197 Kbps
Writing application : VirtualDubMod 1.5.10.2 (build 2540/release)
Writing library : VirtualDubMod build 2540/release

Video
ID : 0
Format : MPEG-4 Visual
Format profile : AdvancedSimple@L5
Format settings, BVOP : Yes
Format settings, QPel : No
Format settings, GMC : No warppoints
Format settings, Matrix : Default (H.263)
Codec ID : XVID
Codec ID/Hint : XviD
Duration : 1h 21mn
Bit rate : 1 065 Kbps
Width : 640 pixels
Height : 352 pixels
Display aspect ratio : 16:9
Frame rate : 23.976 fps
Resolution : 24 bits
Colorimetry : 4:2:0
Scan type : Progressive
Bits/(Pixel*Frame) : 0.197
Stream size : 624 MiB (89%)
Writing library : XviD 1.2.1 (UTC 2008-12-04)

Audio
ID : 1
Format : MPEG Audio
Format version : Version 1
Format profile : Layer 3
Codec ID : 55
Codec ID/Hint : MP3
Duration : 1h 21mn
Bit rate mode : Variable
Bit rate : 119 Kbps
Minimum bit rate : 96.0 Kbps
Channel(s) : 1 channel
Sampling rate : 48.0 KHz
Resolution : 16 bits
Stream size : 70.0 MiB (10%)
Alignment : Aligned on interleaves
Interleave, duration : 24 ms (0.58 video frame)
Interleave, preload duration : 411 ms
Writing library : LAME3.95
Encoding settings : -m m -V 2 -q 3 -lowpass 19 --vbr-new -b 96

Rapidshare


Stones.in.Exile.2010.BONUS.DOCU.DVDRip.XViD-SPRiNTER.mexican-taint.com.part1.rar
Stones.in.Exile.2010.BONUS.DOCU.DVDRip.XViD-SPRiNTER.mexican-taint.com.part2.rar
Stones.in.Exile.2010.BONUS.DOCU.DVDRip.XViD-SPRiNTER.mexican-taint.com.part3.rar
Stones.in.Exile.2010.BONUS.DOCU.DVDRip.XViD-SPRiNTER.mexican-taint.com.part4.rar


Megaupload


  1. http://www.megaupload.com/?d=25CGK1D8
  2. http://www.megaupload.com/?d=8OYUGBVT
  3. http://www.megaupload.com/?d=MEHFZ9PY
  4. http://www.megaupload.com/?d=7CFNXQ5M

Post a Comment

Please feel free to share your thoughts about the contents of this post or whatever is on your mind. Let us know. Lets discuss it. The link down? Tell us and we'll do our best to get it back up as fast as we can. DO NOT advertise/spam your site here or post alternate download links from sites like HotFile , FileSonic, FileJungle ,Wupload, FileServe, Megaupload, Rapidshare, Megashares, Oron, Megaporn, etc. No Torrents. No NZB.

Also NO SPOILERS That's a BIG no-no. Our staff monitor all comments and will delete any that break these few rules.

0 comments: