Wednesday, June 30, 2010

Suicide.Girls.Must.Die.2010.UNRATED.DVDRip.XviD-SPRiNTER

Suicide.Girls.Must.Die.2010.UNRATED.DVDRip.XviD-SPRiNTER

Suicide.Girls.Must.Die.2010.UNRATED.DVDRip.XviD-SPRiNTER


Suicide.Girls.Must.Die.2010.UNRATED.DVDRip.XviD-SPRiNTER
ImdbLINK
Subtitles: N/A

Date: 2010.06

Director: Sawa Suicide
Plot: When twelve nude models for the infamous SuicideGirls.com begin disappearing from a remote cabin, the calendar video they are shooting becomes the first reality horror movie
Genre: Hmm..I wonder

Release notes

Enjoy!







Format : AVI
Format/Info : Audio Video Interleave
File size : 695 MiB
Duration : 1h 37mn
Overall bit rate : 1 001 Kbps
Writing application : Nandub v1.0rc2
Writing library : Nandub build 1852/release

Video
ID : 0
Format : MPEG-4 Visual
Format profile : AdvancedSimple@L5
Format settings, BVOP : Yes
Format settings, QPel : No
Format settings, GMC : No warppoints
Format settings, Matrix : Default (H.263)
Codec ID : XVID
Codec ID/Hint : XviD
Duration : 1h 37mn
Bit rate : 880 Kbps
Width : 512 pixels
Height : 288 pixels
Display aspect ratio : 16:9
Frame rate : 23.976 fps
Resolution : 24 bits
Colorimetry : 4:2:0
Scan type : Progressive
Bits/(Pixel*Frame) : 0.249
Stream size : 611 MiB (88%)
Writing library : XviD 1.1.2 (UTC 2006-11-01)

Audio
ID : 1
Format : MPEG Audio
Format version : Version 1
Format profile : Layer 3
Codec ID : 55
Codec ID/Hint : MP3
Duration : 1h 37mn
Bit rate mode : Variable
Bit rate : 108 Kbps
Minimum bit rate : 64.0 Kbps
Channel(s) : 2 channels
Sampling rate : 48.0 KHz
Resolution : 16 bits
Video delay : 576ms
Stream size : 75.1 MiB (11%)
Alignment : Split accross interleaves
Interleave, duration : 24 ms (0.58 video frame)
Interleave, preload duration : 1704 ms
Writing library : LAME3.95
Encoding settings : -m s -V 6 -q 3 -lowpass 16 --vbr-old -b 64


Rapidshare

Part1
Part2
Part3
Part4



Megaupload


  1. http://www.megaupload.com/?d=LLVJX0BF
  2. http://www.megaupload.com/?d=DKH1DV0G
  3. http://www.megaupload.com/?d=ZZXXYIFT
  4. http://www.megaupload.com/?d=QFFCSF6V

Post a Comment

Please feel free to share your thoughts about the contents of this post or whatever is on your mind. Let us know. Lets discuss it. The link down? Tell us and we'll do our best to get it back up as fast as we can. DO NOT advertise/spam your site here or post alternate download links from sites like HotFile , FileSonic, FileJungle ,Wupload, FileServe, Megaupload, Rapidshare, Megashares, Oron, Megaporn, etc. No Torrents. No NZB.

Also NO SPOILERS That's a BIG no-no. Our staff monitor all comments and will delete any that break these few rules.

0 comments: