Monday, January 31, 2011

Fair Game 2010 BDRip XVID AC3 HQ Hive-CM8

Fair Game 2010 BDRip XVID AC3 HQ Hive-CM8
Fair Game 2010 BDRip XVID AC3 HQ Hive-CM8





[b]Thx Hive

CM8 Doing It Right The First Time :D

Why download a touched up rip of a rip BRrip
Get the real deal BDRip
Enjoy

Dvdscr was released yesterday!
Official Bluraydate will be 29.4.2011!
Now here it is:

VideoSource: Foreign Bluray
Thx
AudioSource: INK´s DVDSCR Audio
thx

Video: 720x304 @bitrate 1800 2pass
Audio: English AC3 5.1 @448
Sample: yes included
Subs: yes own hardcoded for the foreign parts, english subs taken 1:1 from DVDScr

Encode:
a lot of work around 10 hours.
writing down subs from dvdscr and inserting into bluray along with adjusting timeframe.
Syncing audio to the bluray which took long because of an audioglitch in the screener
which forced me to remove 10sec of footage where i had no fitting audio.
But you propably wont notice it because its right at the beginning, but to be fair i mentioned it.
Hope you enjoy this early prerelease.

last but not least thx to Unevano who made it possible to get me the bluray faster.[/b]

Oh n to that numpty sindakit with all his diff names that says we rename BRrips
this HQ is for you lolololol

http://www.imdb.com/title/tt0977855/


General
Complete name : Fair.Game.2010.BDRip.XVID.AC3.HQ.Hive-CM8.avi
Format : AVI
Format/Info : Audio Video Interleave
File size : 1.69 GiB
Duration : 1h 47mn
Overall bit rate : 2 256 Kbps
Writing application : Nandub v1.0rc2
Writing library : Nandub build 1853/release

Video
ID : 0
Format : MPEG-4 Visual
Format profile : Advanced Simple@L5
Format settings, BVOP : Yes
Format settings, QPel : Yes
Format settings, GMC : No warppoints
Format settings, Matrix : Default (H.263)
Muxing mode : Packed bitstream
Codec ID : XVID
Codec ID/Hint : XviD
Duration : 1h 47mn
Bit rate : 1 799 Kbps
Width : 720 pixels
Height : 304 pixels
Display aspect ratio : 2.40:1
Frame rate : 24.000 fps
Color space : YUV
Chroma subsampling : 4:2:0
Bit depth : 8 bits
Scan type : Progressive
Bits/(Pixel*Frame) : 0.342
Stream size : 1.35 GiB (80%)
Writing library : XviD 1.2.1 (UTC 2008-12-04)

Audio
ID : 1
Format : AC-3
Format/Info : Audio Coding 3
Mode extension : CM (complete main)
Codec ID : 2000
Duration : 1h 47mn
Bit rate mode : Constant
Bit rate : 448 Kbps
Channel(s) : 6 channels
Channel positions : Front: L C R, Side: L R, LFE
Sampling rate : 48.0 KHz
Bit depth : 16 bits
Stream size : 343 MiB (20%)
Alignment : Split accross interleaves
Interleave, duration : 42 ms (1.00 video frame)
Interleave, preload duration : 500 ms

Naomi Watts - Valerie Plame
Sean Penn - Joe Wilson
Tom McCarthy - Jeff
Ty Burrell - Fred
Jessica Hecht - Sue
Anand Tiwari - Hafiz
Rebecca Rigg - Lisa
Brooke Smith - Diana

Plame's status as a CIA agent was revealed by White House officials allegedly
out to discredit her husband after he wrote a 2003 New York Times op-ed piece
saying that the Bush administration had manipulated intelligence about weapons
of mass destruction to justify the invasion of Iraq.





HotFile

Fair.Game.2010.BDRip.XVID.AC3.HQ.Hive-CM8-mexican-taint.com.part1.rar.html
Fair.Game.2010.BDRip.XVID.AC3.HQ.Hive-CM8-mexican-taint.com.part2.rar.html
Fair.Game.2010.BDRip.XVID.AC3.HQ.Hive-CM8-mexican-taint.com.part3.rar.html
Fair.Game.2010.BDRip.XVID.AC3.HQ.Hive-CM8-mexican-taint.com.part4.rar.html
Fair.Game.2010.BDRip.XVID.AC3.HQ.Hive-CM8-mexican-taint.com.part5.rar.html

FileSonic

Fair.Game.2010.BDRip.XVID.AC3.HQ.Hive-CM8-mexican-taint.com.part1.rar
Fair.Game.2010.BDRip.XVID.AC3.HQ.Hive-CM8-mexican-taint.com.part2.rar
Fair.Game.2010.BDRip.XVID.AC3.HQ.Hive-CM8-mexican-taint.com.part3.rar
Fair.Game.2010.BDRip.XVID.AC3.HQ.Hive-CM8-mexican-taint.com.part4.rar
Fair.Game.2010.BDRip.XVID.AC3.HQ.Hive-CM8-mexican-taint.com.part5.rar

Post a Comment

Please feel free to share your thoughts about the contents of this post or whatever is on your mind. Let us know. Lets discuss it. The link down? Tell us and we'll do our best to get it back up as fast as we can. DO NOT advertise/spam your site here or post alternate download links from sites like HotFile , FileSonic, FileJungle ,Wupload, FileServe, Megaupload, Rapidshare, Megashares, Oron, Megaporn, etc. No Torrents. No NZB.

Also NO SPOILERS That's a BIG no-no. Our staff monitor all comments and will delete any that break these few rules.

1 comments:

NotoriousRambo said...

Props Dude