Tuesday, August 16, 2011

Final.Destination.5.2011.TS.XViD-IMAGiNE

Final.Destination.5.2011.TS.XViD-IMAGiNE

Final Destination 5 2011 TS XViD – IMAGiNE
Final.Destination.5.2011.TS.XViD-IMAGiNEFinal.Destination.5.2011.TS.XViD-IMAGiNE
Ripper ...........: IMAGiNE
IMDB Rating.......:6.8/10
Video Codec.......: XVID
Release Date......:15/08/11
Audio Codec.......:MP3
Theatre Date......:12/08/11
Audio Bitrate.....:128
Runtime.......:1h 26mn
Subtitles.........:NIL
Language..........:ENGLISH
Resolution...... 720 x 256
IMDb URL..........:http://www.imdb.com/title/tt1622979/

Video
ID : 0
Format : MPEG-4 Visual
Format profile : Advanced Simple@L5
Format settings, BVOP : 2
Format settings, QPel : No
Format settings, GMC : No warppoints
Format settings, Matrix : Default (MPEG)
Muxing mode : Packed bitstream
Codec ID : XVID
Codec ID/Hint : XviD
Duration : 1h 26mn
Bit rate : 2 125 Kbps
Width : 720 pixels
Height : 256 pixels
Display aspect ratio : 2.813
Frame rate : 29.970 fps
Color space : YUV
Chroma subsampling : 4:2:0
Bit depth : 8 bits
Scan type : Progressive
Compression mode : Lossy
Bits/(Pixel*Frame) : 0.385
Stream size : 1.28 GiB (94%)
Writing library : XviD 64

Audio
ID : 1
Format : MPEG Audio
Format version : Version 1
Format profile : Layer 3
Codec ID : 55
Codec ID/Hint : MP3
Duration : 1h 26mn
Bit rate mode : Constant
Bit rate : 128 Kbps
Channel(s) : 2 channels
Sampling rate : 44.1 KHz
Compression mode : Lossy
Stream size : 79.2 MiB (6%)
Alignment : Split accross interleaves
Interleave, duration : 33 ms (1.00 video frame)
Interleave, preload duration : 500 ms

In Final Destination 5, Death is just as omnipresent as ever, and is unleashed after one man’s premonition saves a group of coworkers from a terrifying suspension bridge collapse. But this group of unsuspecting souls was never supposed to survive, and, in a terrifying race against time, the ill-fated group frantically tries to discover a way to escape Death’s sinister agenda.

NOTES:
IMAGiNE bringing you another release..........
First we made a script to crop resize adn so on....
We have done our normal things of adjusting the gamma,
brightness, croma, and rgb colors a bit.
Audio is nice LiNE we filtered synced and muxed to our encode.
Enjoy!


SCREENS:
http://i.imgur.com/1Llyb.jpg
http://i.imgur.com/ylHhk.jpg
http://i.imgur.com/IZxGA.jpg
http://i.imgur.com/36Z7G.jpg
http://i.imgur.com/WtDyS.jpg
http://i.imgur.com/gM07B.jpg


1 Link: WUPLOAD

1 Link: FILESONIC




http://www.filesonic.com/file/1689461831/Final.Destination.5.TS.XViD-IMAGiNE.part2.rar

John Doe's Links

Filesonic
Final.Destination.5.2011.TS.XViD-IMAGiNE.part6.rar
Final.Destination.5.2011.TS.XViD-IMAGiNE.part5.rar
Final.Destination.5.2011.TS.XViD-IMAGiNE.part4.rar
Final.Destination.5.2011.TS.XViD-IMAGiNE.part3.rar
Final.Destination.5.2011.TS.XViD-IMAGiNE.part2.rar
Final.Destination.5.2011.TS.XViD-IMAGiNE.part1.rar

Wupload
Final.Destination.5.2011.TS.XViD-IMAGiNE.part2.rar
Final.Destination.5.2011.TS.XViD-IMAGiNE.part4.rar
Final.Destination.5.2011.TS.XViD-IMAGiNE.part1.rar
Final.Destination.5.2011.TS.XViD-IMAGiNE.part3.rar
Final.Destination.5.2011.TS.XViD-IMAGiNE.part5.rar
Final.Destination.5.2011.TS.XViD-IMAGiNE.part6.rar

Uploaded.to
Final.Destination.5.2011.TS.XViD-IMAGiNE.part6.rar
Final.Destination.5.2011.TS.XViD-IMAGiNE.part5.rar
Final.Destination.5.2011.TS.XViD-IMAGiNE.part4.rar
Final.Destination.5.2011.TS.XViD-IMAGiNE.part3.rar

Final.Destination.5.2011.TS.XViD-IMAGiNE.part2.rar
Final.Destination.5.2011.TS.XViD-IMAGiNE.part1.rar

Post a Comment

Please feel free to share your thoughts about the contents of this post or whatever is on your mind. Let us know. Lets discuss it. The link down? Tell us and we'll do our best to get it back up as fast as we can. DO NOT advertise/spam your site here or post alternate download links from sites like HotFile , FileSonic, FileJungle ,Wupload, FileServe, Megaupload, Rapidshare, Megashares, Oron, Megaporn, etc. No Torrents. No NZB.

Also NO SPOILERS That's a BIG no-no. Our staff monitor all comments and will delete any that break these few rules.

0 comments: