Friday, August 5, 2011

The.Smurfs.2011.TS.XViD–IMAGiNE

Ripper ...........: IMAGiNE IMDB Rating.......:4.2/10
Video Codec.......: XVID Release Date......:03/07/11
Audio Codec.......: MP3 Theatre Date......:29/07/11
Audio Bitrate.....: 128 Runtime...........:1h 34mn
Subtitles.........: NIL Language..........:ENGLISH
Resolution........: 720 x 384
IMDb URL..........:http://www.imdb.com/title/tt0472181/

DETAILS:

Video
ID : 0
Format : MPEG-4 Visual
Format profile : Advanced Simple@L5
Format settings, BVOP : 2
Format settings, QPel : No
Format settings, GMC : No warppoints
Format settings, Matrix : Default (MPEG)
Muxing mode : Packed bitstream
Codec ID : XVID
Codec ID/Hint : XviD
Duration : 1h 34mn
Bit rate : 1 949 Kbps
Width : 720 pixels
Height : 384 pixels
Display aspect ratio : 1.875
Frame rate : 29.970 fps
Color space : YUV
Chroma subsampling : 4:2:0
Bit depth : 8 bits
Scan type : Progressive
Compression mode : Lossy
Bits/(Pixel*Frame) : 0.235
Stream size : 1.28 GiB (93%)
Writing library : XviD 64

Audio
ID : 1
Format : MPEG Audio
Format version : Version 1
Format profile : Layer 3
Mode : Joint stereo
Mode extension : MS Stereo
Codec ID : 55
Codec ID/Hint : MP3
Duration : 1h 34mn
Bit rate mode : Constant
Bit rate : 128 Kbps
Channel(s) : 2 channels
Sampling rate : 44.1 KHz
Compression mode : Lossy
Stream size : 86.1 MiB (6%)
Alignment : Split accross interleaves
Interleave, duration : 33 ms (1.00 video frame)
Writing library : LAME3.98r
Encoding settings : -m j -V 4 -q 2 -lowpass 17 -b 128

SOURCES:

VIDEO: ........... The.Smurfs.2011.CAM.XViD-GANE13:D
AUDIO: ........... Thanks matey:D

NOTES:

IMAGiNE bringing you another release.......... The Smurfs 2011 TS

Ok video First off we made a script to sharpen,crop,resize then

we restored the whitebalance which threw some of the other colors out

a bit so we filtered the rgb to bring it all back in theres lots of blurry

parts and thats something we cant fix now on to the audio is ok LiNE we filtered

synced and muxed to our encode.

fyi ok first ts video 6 audio 6

Plot: When the evil wizard Gargamel chases the tiny blue Smurfs out of their village,
they tumble from their magical world and into ours in fact, smack dab in the middle of Central Park.
Just three apples high and stuck in the Big Apple, the Smurfs must find a way to get back to their
village before Gargamel tracks them down.

Filesonic
The.Smurfs.2011.TS.XViD–IMAGiNE.part6.rar
The.Smurfs.2011.TS.XViD–IMAGiNE.part5.rar
The.Smurfs.2011.TS.XViD–IMAGiNE.part4.rar
The.Smurfs.2011.TS.XViD–IMAGiNE.part3.rar
The.Smurfs.2011.TS.XViD–IMAGiNE.part2.rar
The.Smurfs.2011.TS.XViD–IMAGiNE.part1.rar

Wupload
The.Smurfs.2011.TS.XViD–IMAGiNE.part6.rar
The.Smurfs.2011.TS.XViD–IMAGiNE.part5.rar
The.Smurfs.2011.TS.XViD–IMAGiNE.part4.rar
The.Smurfs.2011.TS.XViD–IMAGiNE.part3.rar
The.Smurfs.2011.TS.XViD–IMAGiNE.part2.rar
The.Smurfs.2011.TS.XViD–IMAGiNE.part1.rar

Uploaded.to
The.Smurfs.2011.TS.XViD–IMAGiNE.part6.rar
The.Smurfs.2011.TS.XViD–IMAGiNE.part5.rar
The.Smurfs.2011.TS.XViD–IMAGiNE.part4.rar
The.Smurfs.2011.TS.XViD–IMAGiNE.part3.rar

The.Smurfs.2011.TS.XViD–IMAGiNE.part2.rar

The.Smurfs.2011.TS.XViD–IMAGiNE.part1.rar


XDG's Links

FILESONIC PART 1
FILESONIC PART 2
FILESONIC PART 3
FILESONIC PART 4

WUPLOAD PART 1
WUPLOAD PART 2
WUPLOAD PART 3
WUPLOAD PART 4

FUZZ's Links (ADDED 8/16/11)

FILESONIC PART 1
FILESONIC PART 2
FILESONIC PART 3
FILESONIC PART 4
FILESONIC SAMPLE

WUPLOAD PART 1
WUPLOAD PART 2
WUPLOAD PART 3
WUPLOAD PART 4
WUPLOAD SAMPLE

Post a Comment

Please feel free to share your thoughts about the contents of this post or whatever is on your mind. Let us know. Lets discuss it. The link down? Tell us and we'll do our best to get it back up as fast as we can. DO NOT advertise/spam your site here or post alternate download links from sites like HotFile , FileSonic, FileJungle ,Wupload, FileServe, Megaupload, Rapidshare, Megashares, Oron, Megaporn, etc. No Torrents. No NZB.

Also NO SPOILERS That's a BIG no-no. Our staff monitor all comments and will delete any that break these few rules.

3 comments:

Anonymous said...

ALL the links are dead!

FuZZ said...

Added New Links:The.Smurfs.2011.TS.XViD–IMAGiNE

Anonymous said...

thaxs alot good stuff