Monday, September 5, 2011

Transformers.3.Dark.of.the.Moon.2011.PPVRip-DTRG

Transformers.3.Dark.of.the.Moon.2011.PPVRip-DTRG
Transformers.3.Dark.of.the.Moon.2011.PPVRip-DTRG
Transformers.3.Dark.of.the.Moon.2011.PPVRip-DTRG

Format : AVI
Format/Info : Audio Video Interleave
File size : 1.72 GiB
Duration : 2h 34mn
Overall bit rate : 1 597 Kbps
Writing application : VirtualDubMod 1.5.10.2 (build 2542/release)
Writing library : VirtualDub build 32842/release

Video
ID : 0
Format : MPEG-4 Visual
Format profile : Advanced Simple@L5
Format settings, BVOP : 2
Format settings, QPel : No
Format settings, GMC : No warppoints
Format settings, Matrix : Default (H.263)
Muxing mode : Packed bitstream
Codec ID : XVID
Codec ID/Hint : XviD
Duration : 2h 34mn
Bit rate : 1 396 Kbps
Width : 524 pixels
Height : 398 pixels
Display aspect ratio : 4:3
Frame rate : 25.000 fps
Color space : YUV
Chroma subsampling : 4:2:0
Bit depth : 8 bits
Scan type : Progressive
Compression mode : Lossy
Bits/(Pixel*Frame) : 0.268
Stream size : 1.51 GiB (87%)
Writing library : XviD 64

Audio
ID : 1
Format : AC-3
Format/Info : Audio Coding 3
Mode extension : CM (complete main)
Codec ID : 2000
Duration : 2h 34mn
Bit rate mode : Constant
Bit rate : 192 Kbps
Channel(s) : 2 channels
Channel positions : Front: L R
Sampling rate : 48.0 KHz
Bit depth : 16 bits
Compression mode : Lossy
Stream size : 212 MiB (12%)
Alignment : Split accross interleaves
Interleave, duration : 40 ms (1.00 video frame)
Interleave, preload duration : 500 ms

http://www.imdb.com/title/tt1399103/

Ratings: 6.6/10 from 67,648 users Metascore: 42/100
Reviews: 655 user | 286 critic | 37 from Metacritic.com

The Autobots learn of a Cybertronian spacecraft hidden on the Moon, and race against the Decepticons to reach it and to learn its secrets.
Director:
Michael Bay
Writer:
Ehren Kruger
Stars:
Shia LaBeouf, Rosie Huntington-Whiteley and Tyrese

Source Used

IFLiX ..........Thanks

Right ive seen so much bitching about these ppvs its funny.....First of all IFLiX brings the source 4:3 /nothing i can do about that .I see some trying to change to 16:9,sorry but just looks plain stupid
I hate doing these ppvs so many filters so slow thats it never seems worth it .So just check out the sample before you down and moan .seriously all the bitchin on is comical either down or dont thats your choice
Big file /long movie

Denoised,deinterlaced,smoothened,sharpened,changed rgb colours ....upped the levels filter and changed the hue

SINGLE LINK:




SPLIT FILES:





Post a Comment

Please feel free to share your thoughts about the contents of this post or whatever is on your mind. Let us know. Lets discuss it. The link down? Tell us and we'll do our best to get it back up as fast as we can. DO NOT advertise/spam your site here or post alternate download links from sites like HotFile , FileSonic, FileJungle ,Wupload, FileServe, Megaupload, Rapidshare, Megashares, Oron, Megaporn, etc. No Torrents. No NZB.

Also NO SPOILERS That's a BIG no-no. Our staff monitor all comments and will delete any that break these few rules.

0 comments: