Tuesday, October 18, 2011

30.Minutes.Or.Less.CAM.READNFO.XViD-REBORN

30.Minutes.Or.Less.CAM.READNFO.XViD-REBORN30.Minutes.Or.Less.CAM.READNFO.XViD-REBORN
30.Minutes.Or.Less.CAM.READNFO.XViD-REBORN
30 Minutes Or Less CAM READNFO XViD - REBORN

SOURCES THANKED:
AUDIO: You'll never know
VIDEO: Relizlab

http://www.imdb.com/title/tt1622547/

Video
ID : 0
Format : MPEG-4 Visual
Format profile : Advanced Simple@L5
Format settings, BVOP : 2
Format settings, QPel : No
Format settings, GMC : No warppoints
Format settings, Matrix : Default (MPEG)
Muxing mode : Packed bitstream
Codec ID : XVID
Codec ID/Hint : XviD
Duration : 1h 14mn
Bit rate : 2 512 Kbps
Width : 720 pixels
Height : 304 pixels
Display aspect ratio : 2.35:1
Frame rate : 25.000 fps
Color space : YUV
Chroma subsampling : 4:2:0
Bit depth : 8 bits
Scan type : Progressive
Compression mode : Lossy
Bits/(Pixel*Frame) : 0.459
Stream size : 1.31 GiB (95%)
Writing library : XviD 64

Audio
ID : 1
Format : MPEG Audio
Format version : Version 1
Format profile : Layer 3
Mode : Joint stereo
Codec ID : 55
Codec ID/Hint : MP3
Duration : 1h 14mn
Bit rate mode : Constant
Bit rate : 128 Kbps
Channel(s) : 2 channels
Sampling rate : 44.1 KHz
Compression mode : Lossy
Stream size : 68.5 MiB (5%)
Alignment : Split accross interleaves
Interleave, duration : 40 ms (1.00 video frame)
Interleave, preload duration : 500 ms

WORKDONE:
Ok onto the source video first .....not too bad for a cam,but had some noise,colours too strong, had rainbow effect, camera movement at intro and a few other times...but the worse thing missing video. Now the colours,brightness etc....we've fixed the best we could. As for missing video, feck all we could do without another source....but intro there is 56secs missing in the middle there is 2x cuts 1x 7secs and 1 x 3secs and the end is missing almost 1min 40 secs. At the very start there is alot of camera movement etc....so we opted to cut it you could see anything anyways. Now audio....very nice cam,but due to the video missing here and there was a PITA to sync but got there in the end. Once synced we saved the file and remastered it in AA...cleaning it up and changing the EQ settings and then finally remuxing to our encode.

Post a Comment

Please feel free to share your thoughts about the contents of this post or whatever is on your mind. Let us know. Lets discuss it. The link down? Tell us and we'll do our best to get it back up as fast as we can. DO NOT advertise/spam your site here or post alternate download links from sites like HotFile , FileSonic, FileJungle ,Wupload, FileServe, Megaupload, Rapidshare, Megashares, Oron, Megaporn, etc. No Torrents. No NZB.

Also NO SPOILERS That's a BIG no-no. Our staff monitor all comments and will delete any that break these few rules.

0 comments: